Dragon Ball Super Broly 2019 720p HDTC x264 [MW]

seeders: 48
leechers: 13
updated:

Download Fast Safe Anonymous
movies, software, shows...
Summary:

Earth is peaceful following the Tournament of Power. Realizing that the universes still hold many more strong people yet to see, Goku spends all his days training to reach even greater heights. Then one day, Goku and Vegeta are faced by a Saiyan called 'Broly' who they've never seen before. The Saiyans were supposed to have been almost completely wiped out in the destruction of Planet Vegeta, so what's this one doing on Earth? This encounter between the three Saiyans who have followed completely different destinies turns into a stupendous battle, with even Frieza (back from Hell) getting caught up in the mix.

Files

Dragon Ball Super Broly 2019 720p HDTC x264 [MW]
  • Dragon Ball Super Broly 2019 720p HDTC x264 [MW].mkv (1.1 GB)

Description





General
Format : Matroska
Format version : Version 4
File size : 1.06 GiB
Duration : 1 h 41 min
Overall bit rate : 1 502 kb/s

Video
ID : 1
Format : AVC
Format/Info : Advanced Video Codec
Format profile : [email protected]
Format settings : CABAC / 4 Ref Frames
Format settings, CABAC : Yes
Format settings, RefFrames : 4 frames
Codec ID : V_MPEG4/ISO/AVC
Duration : 1 h 41 min
Bit rate : 1 400 kb/s
Width : 1 280 pixels
Height : 720 pixels
Display aspect ratio : 16:9
Frame rate mode : Constant
Frame rate : 26.706 FPS
Color space : YUV
Chroma subsampling : 4:2:0
Bit depth : 8 bits
Scan type : Progressive
Bits/(Pixel*Frame) : 0.057
Stream size : 996 MiB (91%)
Writing library : x264 core 157 r2935 545de2f
Default : Yes
Forced : No

Audio
ID : 2
Format : AAC LC
Format/Info : Advanced Audio Codec Low Complexity
Codec ID : A_AAC-2
Duration : 1 h 41 min
Bit rate : 127 kb/s
Channel(s) : 2 channels
Channel layout : L R
Sampling rate : 48.0 kHz
Frame rate : 46.875 FPS (1024 SPF)
Compression mode : Lossy
Stream size : 91.8 MiB (8%)
Language : English
Default : Yes
Forced : No


Click To View Image







Related Torrents

torrent name size uploader age seed leech
1.6 GB YTSAGx 6
days
2250 815
850.5 MB YTSAGx 6
days
1916 744
852.9 MB MkvCage 21
days
699 265
686.1 MB VidyaVox 21
days
501 85
4.8 GB EtHD 6
days
361 178


Download torrent
1.1 GB
seeders:48
leechers:13
Dragon Ball Super Broly 2019 720p HDTC x264 [MW]


Trackers

tracker name
udp://tracker.coppersurfer.tk:6969/announce
udp://tracker.pirateparty.gr:6969/announce
udp://tracker.coppersurfer.tk:6969/announce
udp://tracker.tiny-vps.com:6969/announce
udp://9.rarbg.me:2740/announce
udp://9.rarbg.to:2790/announce
udp://public.popcorn-tracker.org:6969/announce
udp://tracker.vanitycore.co:6969/announce
udp://tracker.opentrackr.org:1337/announce
udp://open.stealth.si:80/announce
µTorrent compatible trackers list

Download torrent
1.1 GB
seeders:48
leechers:13
Dragon Ball Super Broly 2019 720p HDTC x264 [MW]


Torrent hash: 034EBFD6AEE1866A1AC6F07C7FA23387A463568B