Game of Thrones S01E01 720p BluRay x264 AC3 ESub Dual Audio [Hindi + English] 580MB [CraZzyBoY] [First On Net]

seeders: 97
leechers: 60
updated:

Download Fast Safe Anonymous
movies, software, shows...

Files

Game of Thrones S01E01 720p x264 BluRay Dual Aduio [English + Hindi] Esub 580MB [MoviezAddiction]
  • Game of Thrones S01E01 720p x264 BluRay Dual Aduio [English + Hindi] Esub 580MB [MoviezAddiction].mkv (584.1 MB)
  • Thanks Note.txt (0.9 KB)
  • MoviezAddiction.Website.txt (0.2 KB)
  • MoviezAddiction - Download Watch Online.url (0.1 KB)
  • Torrent Seeded By BestBuyRDP.com.txt (0.0 KB)

Description

Quote:


Game of Thrones S01E01 720p BluRay x264 AC3 ESub Dual Audio [Hindi + English] 580MB [CraZzyBoY] [First On Net]Like FaceBook Page



Visit & Support
Visit & Support www.MoviezAddiction.website
Buy Reliable VPS/RDP
Sample
Thanks Khiladi786 For Hindi Audio
Please Note: 18+ Scene Is In English
2nd Episode Coming Soon




Game of Thrones S01E01 720p BluRay x264 AC3 ESub Dual Audio [Hindi + English] 580MB [CraZzyBoY] [First On Net]




Take It Or Leave It
Like Our Work Just leave Only 1 Valuable Comment
Keep Visit and Support http://moviezaddiction.website


General

Format                      : Matroska
Format version              : Version 4 / Version 2
File size                   : 584 MiB
Duration                    : 1 h 1 min
Overall bit rate            : 1 325 kb/s
Encoded date                : UTC 2018-06-16 06:19:06
Writing application         : mkvmerge v12.0.0 ('Trust / Lust') 64bit
Writing library             : libebml v1.3.4 + libmatroska v1.4.5

Video
ID                          : 1
Format                      : AVC
Format/Info                 : Advanced Video Codec
Format profile              : [email protected]
Format settings             : CABAC / 5 Ref Frames
Format settings, CABAC      : Yes
Format settings, ReFrames   : 5 frames
Codec ID                    : V_MPEG4/ISO/AVC
Duration                    : 1 h 1 min
Bit rate                    : 1 067 kb/s
Width                       : 1 280 pixels
Height                      : 720 pixels
Display aspect ratio        : 16:9
Frame rate mode             : Constant
Frame rate                  : 23.976 (24000/1001) FPS
Color space                 : YUV
Chroma subsampling          : 4:2:0
Bit depth                   : 8 bits
Scan type                   : Progressive
Bits/(Pixel*Frame)          : 0.048
Stream size                 : 470 MiB (81%)
Title                       : ::::::www.MoviezAddiction.website::::::
Writing library             : x264 core 133 r2334 a3ac64b
Default                     : Yes
Forced                      : No

Audio #1
ID                          : 2
Format                      : AAC
Format/Info                 : Advanced Audio Codec
Format profile              : HE-AAC / LC
Format settings             : Explicit
Codec ID                    : A_AAC-2
Duration                    : 1 h 1 min
Bit rate                    : 64.0 kb/s
Channel(s)                  : 2 channels
Channel positions           : Front: L R
Sampling rate               : 48.0 kHz / 24.0 kHz
Frame rate                  : 23.438 FPS (1024 SPF)
Compression mode            : Lossy
Delay relative to video     : 31 ms
Stream size                 : 28.2 MiB (5%)
Title                       : ::::::www.MoviezAddiction.website::::::
Language                    : English
Default                     : Yes
Forced                      : No

Audio #2
ID                          : 3
Format                      : AC-3
Format/Info                 : Audio Coding 3
Codec ID                    : A_AC3
Duration                    : 1 h 1 min
Bit rate mode               : Constant
Bit rate                    : 192 kb/s
Channel(s)                  : 6 channels
Channel positions           : Front: L C R, Side: L R, LFE
Sampling rate               : 48.0 kHz
Frame rate                  : 31.250 FPS (1536 SPF)
Bit depth                   : 16 bits
Compression mode            : Lossy
Stream size                 : 84.6 MiB (14%)
Title                       : fb/HindiHollywood
Language                    : Hindi
Service kind                : Complete Main
Default                     : No
Forced                      : No

Text
ID                          : 4
Format                      : UTF-8
Codec ID                    : S_TEXT/UTF8
Codec ID/Info               : UTF-8 Plain Text
Duration                    : 1 h 0 min
Bit rate                    : 39 b/s
Count of elements           : 558
Stream size                 : 17.5 KiB (0%)
Title                       : ::::::www.MoviezAddiction.website::::::
Default                     : Yes
Forced                      : No


Game of Thrones is an American fantasy drama television series created by David Benioff and D. B. Weiss. It is an adaptation of A Song of Ice and Fire, George R. R. Martin's series of fantasy novels, the first of which is A Game of Thrones. It is filmed in Belfast and elsewhere in the United Kingdom, Canada, Croatia, Iceland, Malta, Morocco, Spain, and the United States. The series premiered on HBO in the United States on April 17, 2011, and its seventh season ended on August 27, 2017. The series will conclude with its eighth season premiering in 2019.[1][2]
















Download torrent
584.1 MB
seeders:97
leechers:60
Game of Thrones S01E01 720p BluRay x264 AC3 ESub Dual Audio [Hindi + English] 580MB [CraZzyBoY] [First On Net]


Trackers

tracker name
udp://tracker.coppersurfer.tk:6969/announce
udp://tracker.pirateparty.gr:6969/announce
udp://shadowshq.yi.org:6969/announce
udp://eddie4.nl:6969/announce
udp://tracker.leechers-paradise.org:6969/announce
udp://tracker.opentrackr.org:1337/announce
udp://p4p.arenabg.ch:1337/announce
udp://p4p.arenabg.com:1337/announce
udp://9.rarbg.me:2710/announce
udp://9.rarbg.to:2710/announce
udp://tracker.coppersurfer.tk:80/announce
udp://tracker.vanitycore.co:6969/announce
udp://public.popcorn-tracker.org:6969/announce
udp://tracker.opentrackr.org:1337/announce
udp://tracker.zer0day.to:1337/announce
udp://tracker.leechers-paradise.org:6969/announce
udp://coppersurfer.tk:6969/announce
http://tracker.opentrackr.org/announce
udp://9.rarbg.to:2710/announce
udp://9.rarbg.to:2770/announce
udp://eddie4.nl:6969/announce
udp://explodie.org:6969/announce
udp://ipv4.tracker.harry.lu:80/announce
udp://mgtracker.org:6969/announce
udp://open.stealth.si:80/announce
udp://p4p.arenabg.ch:1337/announce
udp://p4p.arenabg.com:1337/announce
udp://public.popcorn-tracker.org:6969/announce
udp://shadowshq.yi.org:6969/announce
udp://tracker.coppersurfer.tk:6969/announce
udp://tracker.coppersurfer.tk:80/announce
udp://tracker.zer0day.to:1337/announce
udp://tracker.leechers-paradise.org:6969/announce
udp://coppersurfer.tk:6969/announce
µTorrent compatible trackers list

Download torrent
584.1 MB
seeders:97
leechers:60
Game of Thrones S01E01 720p BluRay x264 AC3 ESub Dual Audio [Hindi + English] 580MB [CraZzyBoY] [First On Net]


Torrent hash: 6C3FCAA6F909212D22553BD74A2CB763CA6F4865