House.of.Cards.S04.2160p.NF.WEBRip.DD5.1.x264-iON[rartv]

seeders: 2
leechers: 3
updated:
Added by BreexeOX in TV > HD

Download Fast Safe Anonymous
movies, software, shows...

Files

House.of.Cards.S04.2160p.NF.WEBRip.DD5.1.x264-iON[rartv]
  • RARBG.com.txt (0.0 KB)
  • House.of.Cards.S04.2160p.NF.WEBRip.DD5.1.x264-iOn.nfo (4.5 KB)
  • House.of.Cards.S04E12.Chapter.51.2160p.NF.WEBRip.DD5.1.x264-iON.mkv (5.9 GB)
  • House.of.Cards.S04E09.Chapter.48.2160p.NF.WEBRip.DD5.1.x264-iON.mkv (6.0 GB)
  • House.of.Cards.S04E08.Chapter.47.2160p.NF.WEBRip.DD5.1.x264-iON.mkv (6.1 GB)
  • House.of.Cards.S04E11.Chapter.50.2160p.NF.WEBRip.DD5.1.x264-iON.mkv (6.2 GB)
  • House.of.Cards.S04E06.Chapter.45.2160p.NF.WEBRip.DD5.1.x264-iON.mkv (6.6 GB)
  • House.of.Cards.S04E13.Chapter.52.2160p.NF.WEBRip.DD5.1.x264-iON.mkv (7.1 GB)
  • House.of.Cards.S04E10.Chapter.49.2160p.NF.WEBRip.DD5.1.x264-iON.mkv (7.4 GB)
  • House.of.Cards.S04E04.Chapter.43.2160p.NF.WEBRip.DD5.1.x264-iON.mkv (7.5 GB)
  • House.of.Cards.S04E01.Chapter.40.2160p.NF.WEBRip.DD5.1.x264-iON.mkv (7.6 GB)
  • House.of.Cards.S04E05.Chapter.44.2160p.NF.WEBRip.DD5.1.x264-iON.mkv (7.7 GB)
  • House.of.Cards.S04E07.Chapter.46.2160p.NF.WEBRip.DD5.1.x264-iON.mkv (8.0 GB)
  • House.of.Cards.S04E02.Chapter.41.2160p.NF.WEBRip.DD5.1.x264-iON.mkv (8.3 GB)
  • House.of.Cards.S04E03.Chapter.42.2160p.NF.WEBRip.DD5.1.x264-iON.mkv (8.4 GB)

Description

For the sake of sharing please stay and seed, atleast for a while! Others also want this.
My bandwidth cant stand with good speed to everyone alone at such big files.


IMDB: http://www.imdb.com/title/tt1856010/

http://rarbg.to/


General
Format : Matroska
Format version : Version 4 / Version 2
File size : 7.65 GiB
Duration : 48 min 39 s
Overall bit rate : 22.5 Mb/s
Encoded date : UTC 2016-03-12 00:59:35
Writing application : mkvmerge v8.9.0 ('Father Daughter') 64bit
Writing library : libebml v1.3.3 + libmatroska v1.4.4

Video
ID : 1
Format : AVC
Format/Info : Advanced Video Codec
Format profile : [email protected]
Duration : 48 min 39 s
Bit rate : 22.1 Mb/s
Width : 3 840 pixels
Height : 1 920 pixels
Display aspect ratio : 2.000
Frame rate mode : Constant
Frame rate : 23.976 (24000/1001) FPS
Stream size : 7.52 GiB (98%)
Writing library : x264 core 148 r2665 a01e339
Default : Yes
Forced : No

Audio
ID : 2
Format : AC-3
Format/Info : Audio Coding 3
Duration : 48 min 24 s
Bit rate mode : Constant
Bit rate : 384 kb/s
Compression mode : Lossy
Stream size : 133 MiB (2%)
Language : English
Default : Yes
Forced : No

Text
ID : 3
Format : UTF-8
Codec ID : S_TEXT/UTF8
Codec ID/Info : UTF-8 Plain Text
Duration : 46 min 11 s
Bit rate : 74 b/s
Count of elements : 662
Stream size : 25.2 KiB (0%)
Language : English
Default : Yes
Forced : No



Download torrent
93.1 GB
seeders:2
leechers:3
House.of.Cards.S04.2160p.NF.WEBRip.DD5.1.x264-iON[rartv]


Trackers

tracker name
udp://tracker.openbittorrent.com:80/announce
udp://tracker.opentrackr.org:1337/announce
µTorrent compatible trackers list

Download torrent
93.1 GB
seeders:2
leechers:3
House.of.Cards.S04.2160p.NF.WEBRip.DD5.1.x264-iON[rartv]


Torrent hash: B7EC606670540E9703821385D63B2B08480A467E