Section 377 Season 02 Complete (2019) Hindi Ullu Originals 720p WEB-DL x264 AC3 2.7GB -1337xHD

seeders: 1
leechers: 1
updated:
Added by likuaba in Movies > Bollywood

Download Fast Safe Anonymous
movies, software, shows...
  • Downloads: 232
  • Language: Hindi

Files

Section 377 Season 02 Complete (2019) Hindi Ullu Originals 720p WEB-DL x264 AC3 2.7GB -1337xHD
  • 1337xHD.Com Exclusive Movie & TV Show Site URL.txt (0.0 KB)
  • Section 377 Season 02 Complete (2019) Hindi Ullu Originals 720p WEB-DL x264 AC3 2.7GB -1337xHD.mkv (2.7 GB)

Description

http://hdfilmboss.cc/
http://1337xhd.com/



Official Website http://hdfilmboss.cc/
Official Website http://1337xhd.com/



General
Complete name :Section 377 Season 02 Complete (2019) Hindi Ullu Originals 720p WEB-DL x264 AC3 2.7GB -1337xHD.mkv
Format : Matroska
Format version : Version 4
File size : 2.75 GiB
Duration : 3 h 25 min
Overall bit rate : 1 910 kb/s
Movie name : www.HDFilmBoss.cc
Encoded date : UTC 2019-01-19 05:51:56
Writing application : mkvmerge v30.1.0 ('Forever And More') 64-bit
Writing library : libebml v1.3.6 + libmatroska v1.4.9

Video
ID : 1
Format : AVC
Format/Info : Advanced Video Codec
Format profile : [email protected]
Format settings : 3 Ref Frames
Format settings, CABAC : No
Format settings, RefFrames : 3 frames
Codec ID : V_MPEG4/ISO/AVC
Duration : 3 h 25 min
Bit rate : 1 800 kb/s
Width : 1 280 pixels
Height : 720 pixels
Display aspect ratio : 16:9
Frame rate mode : Constant
Frame rate : 25.000 FPS
Color space : YUV
Chroma subsampling : 4:2:0
Bit depth : 8 bits
Scan type : Progressive
Bits/(Pixel*Frame) : 0.078
Stream size : 2.56 GiB (93%)
Title : www.1337xHD.Com
Writing library : x264 core 157 r2935 545de2f
Default : Yes
Forced : No

Audio
ID : 2
Format : AAC LC
Format/Info : Advanced Audio Codec Low Complexity
Codec ID : A_AAC-2
Duration : 3 h 25 min
Bit rate : 128 kb/s
Channel(s) : 2 channels
Channel layout : L R
Sampling rate : 48.0 kHz
Frame rate : 46.875 FPS (1024 SPF)
Compression mode : Lossy
Stream size : 189 MiB (7%)
Language : Hindi
Default : Yes
Forced : No







Download torrent
2.7 GB
seeders:1
leechers:1
Section 377 Season 02 Complete (2019) Hindi Ullu Originals 720p WEB-DL x264 AC3 2.7GB -1337xHD



Download torrent
2.7 GB
seeders:1
leechers:1
Section 377 Season 02 Complete (2019) Hindi Ullu Originals 720p WEB-DL x264 AC3 2.7GB -1337xHD


Torrent hash: 7A884B7CEE2D832803E56DE73350C5EF09021D3F